<?xml version="1.0" standalone="no"?>
<!DOCTYPE svg PUBLIC "-//W3C//DTD SVG 1.1//EN" "http://www.w3.org/Graphics/SVG/1.1/DTD/svg11.dtd" >
<svg xmlns="http://www.w3.org/2000/svg">
<metadata>Generated by IcoMoon</metadata>
<defs>
<font id="ico-hkt" horiz-adv-x="1024">
<font-face units-per-em="1024" ascent="1024" descent="0" />
<missing-glyph horiz-adv-x="1024" />
<glyph unicode="&#x20;" horiz-adv-x="0" d="" />
<glyph unicode="&#xe900;" glyph-name="business" d="M794.108 853.333h-606.884l-101.891-291.657v-27.78c0-38.822 18.672-73.361 47.5-95.125v-301.103h715.666v301.103c28.83 21.764 47.501 56.303 47.501 95.125v27.78l-101.892 291.657zM838.797 581.397h-137.378l-39.202 224.436h98.172l78.409-224.436zM132.833 533.897h143.292c0-39.505-32.14-71.646-71.646-71.646s-71.646 32.141-71.646 71.646zM466.918 533.897c0-39.505-32.141-71.646-71.648-71.646s-71.646 32.141-71.646 71.646h143.293zM328.133 581.397l39.203 224.436h99.582v-224.436h-138.786zM514.415 581.397v224.436h99.584l39.202-224.436h-138.786zM657.707 533.897c0-39.505-32.137-71.646-71.646-71.646-39.505 0-71.646 32.141-71.646 71.646h143.292zM220.943 805.833h98.173l-39.203-224.436h-137.375l78.405 224.436zM800.998 185.165h-620.665v232.047c7.799-1.613 15.875-2.462 24.146-2.462 38.98 0 73.646 18.816 95.396 47.842 21.75-29.026 56.416-47.842 95.396-47.842 38.982 0 73.644 18.816 95.396 47.842 21.751-29.026 56.414-47.842 95.394-47.842s73.647 18.816 95.398 47.842c21.751-29.026 56.414-47.842 95.394-47.842 8.273 0 16.346 0.849 24.145 2.462v-232.047zM776.853 462.251c-39.505 0-71.646 32.141-71.646 71.646h143.292c0-39.505-32.141-71.646-71.646-71.646z" />
<glyph unicode="&#xe901;" glyph-name="china-solutions" d="M511.991 838.695c-13.807 0-24.998-11.194-24.998-25.001s11.191-25.001 24.998-25.001c82.731 0 150.033-67.293 150.033-150.007 0-13.807 11.196-25.001 25.003-25.001s24.998 11.194 24.998 25.001c0 110.285-89.732 200.009-200.034 200.009zM447.573 931.969c-112.956-23.603-204.544-114.313-228.643-227.97-20.349-95.974 4.727-192.328 68.798-264.358 31.319-35.204 49.28-81.681 49.28-127.633v-50.001c0-33.271 21.779-61.534 51.824-71.322 9.881-58.377 60.55-105.353 123.184-105.353 62.618 0 113.301 46.959 123.183 105.353 30.046 9.788 51.823 38.050 51.823 71.322v50.001c0 46.046 18.022 91.959 50.739 129.289 47.893 54.635 74.27 124.74 74.27 197.393 0 189.283-173.257 333.225-364.459 293.28zM512.017 135.334c-32.137 0-60.318 22.114-70.72 51.836h141.44c-10.402-29.722-38.583-51.836-70.72-51.836zM637.022 262.007c0-13.786-11.217-25.003-25.003-25.003h-200.007c-13.786 0-25.001 11.217-25.001 25.003v24.998h250.010v-24.998zM700.16 474.253c-34.867-39.778-56.32-87.748-61.764-137.242h-252.754c-5.437 49.519-26.835 97.963-60.55 135.863-53.399 60.032-74.265 140.492-57.246 220.753 19.866 93.694 96.203 169.806 189.955 189.395 160.047 33.447 304.226-86.746 304.226-244.332 0-60.522-21.969-118.92-61.867-164.437zM160.337 638.687h-50.002c-13.807 0-25.001-11.194-25.001-25.001s11.194-25.001 25.001-25.001h50.002c13.807 0 25.001 11.194 25.001 25.001s-11.194 25.001-25.001 25.001zM170.691 763.69l-35.357 35.357c-9.762 9.763-25.593 9.763-35.357 0s-9.764-25.593 0-35.357l35.357-35.357c9.762-9.764 25.593-9.766 35.357 0 9.764 9.763 9.764 25.593 0 35.357zM170.691 499.034c-9.764 9.762-25.594 9.762-35.357 0l-35.357-35.358c-9.764-9.762-9.764-25.591 0-35.354 9.762-9.766 25.593-9.766 35.357 0l35.357 35.354c9.764 9.766 9.764 25.596 0 35.358zM913.702 638.687h-50.001c-13.807 0-25.003-11.194-25.003-25.001s11.196-25.001 25.003-25.001h50.001c13.807 0 25.003 11.194 25.003 25.001s-11.196 25.001-25.003 25.001zM924.058 799.047c-9.762 9.763-25.591 9.763-35.358 0l-35.358-35.357c-9.762-9.764-9.762-25.593 0-35.357 9.762-9.762 25.596-9.764 35.358 0l35.358 35.357c9.762 9.763 9.762 25.593 0 35.357zM924.058 463.676l-35.358 35.358c-9.762 9.762-25.591 9.762-35.358 0-9.762-9.762-9.762-25.591 0-35.358l35.358-35.354c9.762-9.762 25.591-9.766 35.358 0 9.762 9.762 9.762 25.591 0 35.354z" />
<glyph unicode="&#xe902;" glyph-name="cloud-services" d="M277.333 192c-58.965 0-109.262 20.489-150.891 61.461-41.629 40.969-62.443 90.931-62.443 149.897 0 52.19 16.711 98.603 50.133 139.243 33.422 40.649 76.061 64.692 127.915 72.13 13.675 63.779 45.746 115.936 96.213 156.469 50.461 40.533 108.373 60.8 173.739 60.8 77.184 0 142.703-26.926 196.557-80.779 53.85-53.853 80.777-119.371 80.777-196.555v-21.333h13.133c44.962-3.499 82.458-21.581 112.491-54.242 30.029-32.653 45.043-71.462 45.043-116.425 0-47.586-16.546-87.927-49.643-121.024s-73.438-49.643-121.024-49.643h-512zM277.333 256h512c29.867 0 55.113 10.313 75.733 30.933s30.933 45.867 30.933 75.733c0 29.867-10.313 55.113-30.933 75.733s-45.867 30.933-75.733 30.933h-64v85.333c0 59.022-20.8 109.333-62.4 150.933s-91.913 62.4-150.933 62.4c-59.021 0-109.333-20.8-150.933-62.4s-62.4-91.911-62.4-150.933h-21.333c-41.245 0-76.445-14.579-105.6-43.733s-43.733-64.354-43.733-105.6c0-41.246 14.578-76.446 43.733-105.6s64.355-43.733 105.6-43.733z" />
<glyph unicode="&#xe903;" glyph-name="customer-engagement" d="M518.315 601.709c81.135 0 147.145 66.009 147.145 147.146s-66.010 147.145-147.145 147.145c-81.135 0-147.145-66.009-147.145-147.145s66.010-147.146 147.145-147.146zM518.315 845.26c53.158 0 96.405-43.247 96.405-96.406s-43.247-96.406-96.405-96.406c-53.158 0-96.406 43.247-96.406 96.406s43.247 96.406 96.406 96.406zM815.987 601.709c51.294 0 93.026 41.73 93.026 93.023s-41.732 93.023-93.026 93.023c-51.29 0-93.022-41.73-93.022-93.023s41.732-93.023 93.022-93.023zM815.987 737.015c23.317 0 42.287-18.968 42.287-42.283s-18.97-42.284-42.287-42.284c-23.313 0-42.283 18.968-42.283 42.284s18.97 42.283 42.283 42.283zM836.45 544.205h-39.236c-46.238 0-86.157-27.319-104.346-66.56-37.444 40.879-91.234 66.56-150.912 66.56h-47.283c-59.678 0-113.467-25.681-150.915-66.56-18.19 39.241-58.106 66.56-104.345 66.56h-39.239c-63.323 0-114.841-51.209-114.841-114.15v-184.708c0-27.324 22.316-49.557 49.745-49.557h155.14c2.601-30.272 28.059-54.123 58.999-54.123h338.193c30.938 0 56.397 23.851 58.999 54.123h153.365c28.407 0 51.52 23.019 51.52 51.315v182.95c-0.004 62.942-51.52 114.15-114.846 114.15zM136.073 430.054c0 34.965 28.756 63.407 64.102 63.407h39.239c35.345 0 64.101-28.442 64.101-63.407v-17.37c-17.060-44.42-13.53-71.044-13.53-166.157h-153.911v183.526zM695.902 200.9c0-4.685-3.81-8.495-8.491-8.495h-338.195c-4.684 0-8.492 3.814-8.492 8.495v138.615c0 84.885 69.060 153.946 153.945 153.946h47.287c84.885 0 153.946-69.060 153.946-153.946v-138.615zM900.553 247.104c0-0.875 9.459-0.576-153.911-0.576 0 95.817 3.503 121.809-13.53 166.157v17.37c0 34.965 28.757 63.407 64.102 63.407h39.236c35.345 0 64.102-28.442 64.102-63.407v-182.95zM220.64 601.709c51.293 0 93.023 41.73 93.023 93.023s-41.73 93.023-93.023 93.023c-51.293 0-93.023-41.73-93.023-93.023s41.73-93.023 93.023-93.023zM220.64 737.015c23.315 0 42.284-18.968 42.284-42.283s-18.968-42.284-42.284-42.284c-23.315 0-42.283 18.968-42.283 42.284s18.968 42.283 42.283 42.283z" />
<glyph unicode="&#xe904;" glyph-name="cybersecurity" d="M512 107.486c-92.281 25.165-168.683 79.484-229.205 162.953-60.53 83.473-90.795 176.789-90.795 279.957v245.495l320 119.797 320-119.797v-245.495c0-103.168-30.263-196.484-90.795-279.957-60.523-83.469-136.926-137.788-229.205-162.953zM512 174.929c73.954 23.467 135.113 70.4 183.467 140.8s72.533 148.625 72.533 234.667v201.601l-256 95.595-256-95.595v-201.601c0-86.042 24.178-164.267 72.533-234.667s109.513-117.333 183.467-140.8zM427.486 348.71h169.028c10.927 0 20.087 3.699 27.477 11.093 7.386 7.39 11.081 16.55 11.081 27.477v126.357c0 10.923-3.695 20.083-11.081 27.477-7.39 7.39-16.55 11.085-27.477 11.085h-3.691v42.667c0 22.371-7.808 41.364-23.424 56.98-15.616 15.623-34.615 23.435-56.994 23.435-22.37 0-41.365-7.812-56.981-23.435-15.616-15.616-23.424-34.609-23.424-56.98v-42.667h-4.514c-10.928 0-20.087-3.695-27.475-11.085-7.389-7.394-11.083-16.555-11.083-27.477v-126.357c0-10.927 3.694-20.087 11.083-27.477 7.389-7.394 16.547-11.093 27.475-11.093zM469.739 552.201v42.667c0 12.088 4.087 22.221 12.267 30.399s18.313 12.267 30.4 12.267c12.087 0 22.221-4.089 30.4-12.267s12.267-18.311 12.267-30.399v-42.667h-85.333z" />
<glyph unicode="&#xe905;" glyph-name="digital-technology" d="M288.105 679.38c92.808 31.523 72.916 166.619-26.252 168.915-99.185-2.307-119.040-137.41-26.249-168.915v-109.209l120.5-120.499v-407.002h52.5v428.749l-120.5 120.499v87.462zM261.855 795.796c18.748 0 34.001-15.251 34.001-33.999-1.867-45.106-66.139-45.092-68 0 0 18.748 15.253 33.999 33.999 33.999zM197.731 348.002c92.806 31.522 72.913 166.618-26.252 168.913-99.183-2.304-119.040-137.408-26.248-168.913v-109.21l90.375-90.377v-105.749h52.5v127.497l-90.375 90.377v87.462zM171.481 464.418c18.748 0 33.999-15.253 33.999-34.001-1.867-45.107-66.139-45.090-68 0 0 18.748 15.253 34.001 34.001 34.001zM770.108 679.38c92.804 31.523 72.913 166.619-26.253 168.915-99.183-2.307-119.036-137.41-26.249-168.915v-87.462l-120.499-120.499v-428.749h52.501v407.002l120.499 120.499v109.209zM743.855 795.796c18.748 0 34.001-15.251 34.001-33.999-1.865-45.105-66.138-45.094-67.998 0 0 18.748 15.249 33.999 33.997 33.999zM920.73 430.417c0 47.697-38.805 86.498-86.498 86.498-99.191-2.304-119.036-137.412-26.253-168.913v-87.462l-90.377-90.377v-127.497h52.501v105.754l90.377 90.372v109.21c34.901 11.14 60.25 43.866 60.25 82.415zM834.231 396.416c-18.748 0-34.001 15.253-34.001 34.001 1.865 45.107 66.138 45.090 67.998 0 0.004-18.748-15.249-34.001-33.997-34.001zM502.857 938.667c-99.215-2.319-119.020-137.422-26.249-168.915v-727.085h52.497v727.085c92.83 31.538 72.892 166.624-26.249 168.915zM502.857 818.167c-18.748 0-34.001 15.251-34.001 33.999 1.869 45.106 66.138 45.092 67.998 0 0.004-18.748-15.249-33.999-33.997-33.999z" />
<glyph unicode="&#xe906;" glyph-name="enterprise" d="M913.668 135.334h-10.001v241.664c0 9.472-5.35 18.129-13.82 22.362l-86.182 43.089v67.883c0 9.472-5.35 18.129-13.82 22.362l-119.514 59.755v221.219c0 13.807-11.191 25-24.998 25h-8.333v75c0 13.807-11.196 25-24.998 25h-200.002c-13.807 0-25-11.193-25-25v-75h-8.333c-13.807 0-25-11.193-25-25v-95h-108.333c-13.807 0-25-11.193-25-25v-366.665h-75c-13.807 0-25-11.196-25-25.003v-166.665h-10c-13.807 0-25-11.196-25-25.003s11.193-24.998 25-24.998h803.335c13.807 0 24.998 11.191 24.998 24.998s-11.191 25.003-24.998 25.003zM437.001 888.666h149.999v-50h-149.999v50zM403.667 788.667h216.668v-171.217l-30.49 15.244c-7.748 3.875-16.951 3.46-24.32-1.094-7.373-4.556-11.857-12.603-11.857-21.266v-474.999h-83.337v558.332c0 13.807-11.191 25-24.998 25h-41.667v70zM270.333 668.667h150v-533.332h-50v166.665c0 13.807-11.194 25.003-25 25.003h-75v341.665zM270.333 135.334v58.334c0 13.807-11.194 24.998-25 24.998s-25-11.191-25-24.998v-58.334h-50v141.666h150v-141.666h-50zM603.665 569.882l150.003-74.999v-359.548h-150.003v434.547zM803.665 135.334v251.213l50.001-24.998v-226.214h-50.001zM678.665 452.002c-13.803 0-24.998-11.196-24.998-25.003v-50.001c0-13.807 11.196-24.998 24.998-24.998 13.807 0 25.003 11.191 25.003 24.998v50.001c0 13.807-11.196 25.003-25.003 25.003zM345.333 518.665c13.807 0 25 11.196 25 25.003v50.001c0 13.805-11.194 24.998-25 24.998s-25-11.193-25-24.998v-50.001c0-13.807 11.194-25.003 25-25.003zM370.333 393.668v49.997c0 13.807-11.194 25.003-25 25.003s-25-11.196-25-25.003v-49.997c0-13.807 11.194-25.003 25-25.003s25 11.196 25 25.003zM678.665 301.999c-13.803 0-24.998-11.191-24.998-24.998v-50.001c0-13.807 11.196-24.998 24.998-24.998 13.807 0 25.003 11.191 25.003 24.998v50.001c0 13.807-11.196 24.998-25.003 24.998z" />
<glyph unicode="&#xe907;" glyph-name="eye" d="M989.239 524.962c-1.399 3.157-35.281 78.318-110.601 153.638-100.361 100.36-227.119 153.4-366.639 153.4s-266.281-53.040-366.64-153.4c-75.32-75.32-109.36-150.6-110.6-153.638-1.819-4.096-2.76-8.525-2.76-13.001 0-4.48 0.94-8.909 2.76-13.001 1.4-3.162 35.28-78.281 110.6-153.6 100.36-100.322 227.12-153.361 366.64-153.361s266.278 53.039 366.639 153.361c75.319 75.319 109.201 150.438 110.601 153.6 1.818 4.092 2.761 8.521 2.761 13.001 0 4.476-0.943 8.905-2.761 13.001zM512 256c-123.12 0-230.68 44.762-319.721 133.001-36.534 36.331-67.616 77.76-92.28 122.999 24.657 45.244 55.74 86.673 92.28 123 89.040 88.24 196.6 133 319.721 133 123.119 0 230.682-44.76 319.718-133 36.608-36.318 67.755-77.748 92.48-123-28.838-53.841-154.479-256-412.198-256zM512 704c-37.973 0-75.098-11.261-106.67-32.358-31.574-21.097-56.183-51.084-70.715-86.166-14.532-35.085-18.334-73.69-10.926-110.933s25.694-71.454 52.546-98.308c26.852-26.85 61.064-45.137 98.308-52.544 37.244-7.411 75.849-3.61 110.933 10.923 35.081 14.532 65.067 39.142 86.165 70.716 21.099 31.578 32.358 68.698 32.358 106.671-0.055 50.906-20.301 99.71-56.294 135.706s-84.8 56.241-135.706 56.294zM512 384c-25.318 0-50.065 7.505-71.113 21.572-21.050 14.063-37.457 34.057-47.145 57.442-9.688 23.39-12.223 49.126-7.284 73.958 4.939 24.828 17.13 47.637 35.031 65.537 17.9 17.901 40.71 30.092 65.537 35.031 24.832 4.939 50.569 2.404 73.954-7.284 23.39-9.688 43.383-26.094 57.446-47.144 14.063-21.047 21.572-45.798 21.572-71.113 0-33.946-13.487-66.505-37.491-90.509s-56.563-37.491-90.509-37.491z" />
<glyph unicode="&#xe908;" glyph-name="eye-closed" d="M912 323.998c-3.657-2.082-7.689-3.426-11.861-3.951-4.177-0.525-8.414-0.222-12.471 0.892-4.053 1.118-7.851 3.021-11.174 5.602-3.319 2.586-6.097 5.798-8.175 9.459l-75.998 132.8c-44.186-29.875-92.928-52.382-144.32-66.641l23.479-140.881c0.691-4.147 0.559-8.388-0.388-12.484s-2.692-7.966-5.137-11.388c-2.445-3.422-5.542-6.327-9.109-8.555-3.567-2.223-7.539-3.725-11.686-4.412-1.707-0.277-3.43-0.427-5.158-0.439-7.573 0.009-14.895 2.705-20.663 7.603-5.773 4.902-9.617 11.686-10.859 19.157l-23.078 138.317c-48.674-6.771-98.048-6.771-146.722 0l-23.079-138.317c-1.242-7.484-5.101-14.281-10.889-19.183-5.787-4.898-13.128-7.586-20.712-7.578-1.769 0.009-3.534 0.154-5.28 0.439-4.148 0.687-8.119 2.189-11.688 4.412-3.568 2.227-6.663 5.133-9.107 8.555s-4.19 7.292-5.138 11.388c-0.948 4.096-1.079 8.337-0.387 12.484l23.6 140.881c-51.375 14.306-100.088 36.851-144.24 66.761l-75.76-132.919c-2.101-3.661-4.903-6.874-8.245-9.451-3.343-2.581-7.16-4.476-11.235-5.577-4.075-1.105-8.327-1.395-12.513-0.853-4.186 0.538-8.226 1.899-11.887 3.998-3.661 2.103-6.873 4.907-9.451 8.247s-4.473 7.159-5.577 11.234c-1.103 4.075-1.393 8.329-0.853 12.514s1.9 8.226 4.001 11.887l80 139.998c-28.1 24.277-53.94 51.055-77.2 80-2.901 3.238-5.111 7.036-6.496 11.158s-1.916 8.482-1.559 12.815c0.356 4.334 1.592 8.549 3.631 12.389s4.841 7.224 8.232 9.946c3.391 2.721 7.301 4.723 11.491 5.883s8.573 1.454 12.881 0.864c4.308-0.59 8.45-2.052 12.174-4.296s6.952-5.224 9.486-8.757c66.4-82.16 182.56-179.999 359.122-179.999 176.559 0 292.719 97.958 359.117 179.999 2.505 3.606 5.726 6.657 9.463 8.964 3.733 2.308 7.902 3.822 12.25 4.448 4.343 0.627 8.772 0.352 13.009-0.806 4.233-1.158 8.183-3.175 11.605-5.926s6.242-6.176 8.286-10.063c2.039-3.887 3.26-8.152 3.58-12.531 0.324-4.379-0.26-8.777-1.711-12.921s-3.738-7.946-6.72-11.168c-23.262-28.945-49.101-55.723-77.201-80l80-139.998c2.146-3.652 3.55-7.689 4.126-11.883 0.572-4.198 0.311-8.465-0.777-12.557s-2.974-7.932-5.555-11.285c-2.577-3.358-5.798-6.174-9.472-8.277z" />
<glyph unicode="&#xe909;" glyph-name="pause" d="M342 854c-28.68 0-52-23.32-52-52v-580c0-28.68 23.32-52 52-52s52 23.32 52 52v580c0 28.68-23.32 52-52 52zM682 854c-28.68 0-52-23.32-52-52v-580c0-28.68 23.32-52 52-52s52 23.32 52 52v580c0 28.68-23.32 52-52 52z" />
<glyph unicode="&#xe90a;" glyph-name="payment-solution" d="M917.333 754.869v-485.741c0-21.551-7.467-39.795-22.4-54.729s-33.178-22.4-54.729-22.4h-656.407c-21.554 0-39.797 7.467-54.731 22.4s-22.4 33.178-22.4 54.729v485.741c0 21.554 7.467 39.797 22.4 54.731s33.177 22.4 54.731 22.4h656.407c21.551 0 39.795-7.467 54.729-22.4s22.4-33.177 22.4-54.731zM170.667 665.429h682.667v89.44c0 3.285-1.37 6.293-4.105 9.024-2.731 2.738-5.739 4.107-9.024 4.107h-656.407c-3.285 0-6.293-1.369-9.024-4.107-2.738-2.731-4.107-5.739-4.107-9.024v-89.44zM170.667 529.237v-260.109c0-3.285 1.369-6.293 4.107-9.024 2.731-2.735 5.739-4.105 9.024-4.105h656.407c3.285 0 6.293 1.37 9.024 4.105 2.735 2.731 4.105 5.739 4.105 9.024v260.109h-682.667z" />
<glyph unicode="&#xe90b;" glyph-name="add" d="M896 512c0-8.486-3.371-16.627-9.374-22.626-5.999-6.003-14.14-9.374-22.626-9.374h-320v-320c0-8.486-3.371-16.627-9.374-22.626-5.999-6.003-14.14-9.374-22.626-9.374s-16.627 3.371-22.626 9.374c-6.003 5.999-9.374 14.14-9.374 22.626v320h-320c-8.487 0-16.626 3.371-22.627 9.374-6.001 5.999-9.373 14.14-9.373 22.626s3.372 16.627 9.373 22.626c6.001 6.003 14.141 9.374 22.627 9.374h320v320c0 8.487 3.371 16.626 9.374 22.627 5.999 6.001 14.14 9.373 22.626 9.373s16.627-3.372 22.626-9.373c6.003-6.001 9.374-14.141 9.374-22.627v-320h320c8.486 0 16.627-3.371 22.626-9.374 6.003-5.999 9.374-14.14 9.374-22.626z" />
<glyph unicode="&#xe90c;" glyph-name="arrow-down" d="M512 840.533c16.495 0 29.867-13.372 29.867-29.867v-597.333c0-16.495-13.372-29.867-29.867-29.867s-29.867 13.372-29.867 29.867v597.333c0 16.495 13.372 29.867 29.867 29.867zM192.214 533.12c11.664 11.661 30.575 11.661 42.238 0l277.548-277.551 277.547 277.551c11.665 11.661 30.575 11.661 42.24 0 11.661-11.665 11.661-30.575 0-42.24l-298.667-298.667c-11.665-11.661-30.575-11.661-42.24 0l-298.666 298.667c-11.663 11.665-11.663 30.575 0 42.24z" />
<glyph unicode="&#xe90d;" glyph-name="arrow-left" d="M840.533 512c0 16.495-13.372 29.867-29.867 29.867h-597.333c-16.495 0-29.867-13.372-29.867-29.867s13.372-29.867 29.867-29.867h597.333c16.495 0 29.867 13.372 29.867 29.867zM533.12 192.213c11.661 11.665 11.661 30.575 0 42.24l-277.549 277.547 277.549 277.548c11.661 11.664 11.661 30.574 0 42.238-11.665 11.664-30.575 11.664-42.24 0l-298.666-298.666c-11.663-11.665-11.663-30.575 0-42.24l298.666-298.667c11.665-11.661 30.575-11.661 42.24 0z" />
<glyph unicode="&#xe90e;" glyph-name="arrow-right" d="M183.466 512c0 16.495 13.372 29.867 29.867 29.867h597.334c16.495 0 29.867-13.372 29.867-29.867s-13.372-29.867-29.867-29.867h-597.334c-16.495 0-29.867 13.372-29.867 29.867zM490.88 192.213c-11.665 11.665-11.665 30.575 0 42.24l277.547 277.547-277.547 277.548c-11.665 11.664-11.665 30.574 0 42.238s30.575 11.664 42.24 0l298.667-298.666c11.661-11.665 11.661-30.575 0-42.24l-298.667-298.667c-11.665-11.661-30.575-11.661-42.24 0z" />
<glyph unicode="&#xe90f;" glyph-name="arrow-top" d="M512 183.467c16.495 0 29.867 13.372 29.867 29.867v597.333c0 16.495-13.372 29.867-29.867 29.867s-29.867-13.372-29.867-29.867v-597.333c0-16.495 13.372-29.867 29.867-29.867zM192.214 490.88c11.664-11.661 30.575-11.661 42.238 0l277.548 277.549 277.547-277.549c11.665-11.661 30.575-11.661 42.24 0 11.661 11.665 11.661 30.575 0 42.24l-298.667 298.666c-11.665 11.663-30.575 11.663-42.24 0l-298.666-298.666c-11.663-11.665-11.663-30.575 0-42.24z" />
<glyph unicode="&#xe910;" glyph-name="back" d="M887.044 648.158c0-137.681-111.616-249.293-249.297-249.293h-470.924c-16.495 0-29.867 13.372-29.867 29.867 0 16.491 13.372 29.867 29.867 29.867h470.924c104.691 0 189.564 84.868 189.564 189.56v214.319c0 16.495 13.372 29.867 29.867 29.867s29.867-13.372 29.867-29.867v-214.319zM408.414 187.14c-11.664-11.665-30.575-11.665-42.238 0l-220.471 220.471c-11.664 11.661-11.664 30.575 0 42.236l220.471 220.471c11.663 11.664 30.574 11.664 42.238 0s11.663-30.574 0-42.238l-199.352-199.354 199.352-199.351c11.663-11.661 11.663-30.571 0-42.236z" />
<glyph unicode="&#xe911;" glyph-name="bind" d="M281.6 832h197.44c28.574 0 56.87-5.629 83.273-16.564 26.398-10.935 50.389-26.964 70.592-47.17 20.207-20.206 36.237-44.194 47.172-70.594s16.563-54.697 16.563-83.272v-13.12c-0.085-57.655-23.049-112.922-63.846-153.66s-96.098-63.62-153.754-63.62h-31.040v64h31.040c40.572 0.085 79.462 16.218 108.181 44.873 28.715 28.659 44.928 67.516 45.099 108.087v13.44c0 40.627-16.094 79.599-44.762 108.386s-67.571 45.044-108.198 45.214h-197.76c-40.737 0-79.806-16.183-108.611-44.989s-44.989-67.874-44.989-108.611v-13.12c0.096-36.194 13.002-71.185 36.431-98.773s55.868-45.99 91.569-51.947v-64c-52.62 6.234-101.158 31.45-136.508 70.925s-55.081 90.487-55.492 143.475v13.44c0.084 57.685 23.037 112.983 63.827 153.773s96.088 63.743 153.773 63.827zM768 573.44v64c52.727-6.246 101.355-31.557 136.717-71.164 35.366-39.607 55.027-90.778 55.283-143.876v-13.12c-0.171-57.574-23.117-112.742-63.825-153.455-40.713-40.708-95.881-63.654-153.455-63.825h-197.76c-57.545 0.085-112.713 22.959-153.434 63.62s-63.677 95.795-63.846 153.34v13.44c0 57.655 22.882 112.956 63.62 153.754s96.004 63.761 153.66 63.846h31.040v-64h-31.040c-40.683-0.085-79.667-16.303-108.403-45.103-28.738-28.796-44.877-67.814-44.877-108.497v-13.12c0.084-40.627 16.261-79.565 44.988-108.292s67.665-44.902 108.292-44.988h197.76c40.572 0.085 79.462 16.218 108.181 44.873 28.715 28.659 44.928 67.516 45.099 108.087v13.44c-0.021 36.25-12.894 71.317-36.326 98.97-23.437 27.657-55.919 46.106-91.674 52.070z" />
<glyph unicode="&#xe912;" glyph-name="calendar" d="M96 590.933c0 157.655 127.855 285.013 285.013 285.013h338.773c124.339 0 225.28-100.94 225.28-225.28 0-56.201-45.602-101.12-101.12-101.12h-574.293c-17.673 0-32 14.327-32 32s14.327 32 32 32h574.293c20.429 0 37.12 16.521 37.12 37.12 0 88.994-72.286 161.28-161.28 161.28h-338.773c-121.882 0-221.013-98.775-221.013-221.013v-246.187c0-121.882 98.775-221.013 221.013-221.013h279.467c121.882 0 221.013 98.773 221.013 221.013 0 17.673 14.327 32 32 32s32-14.327 32-32c0-157.653-127.855-285.013-285.013-285.013h-279.467c-157.655 0-285.013 127.855-285.013 285.013v246.187zM690.347 970.667c17.673 0 32-14.327 32-32v-191.573c0-17.673-14.327-32-32-32s-32 14.327-32 32v191.573c0 17.673 14.327 32 32 32zM368.64 970.667c17.673 0 32-14.327 32-32v-191.573c0-17.673-14.327-32-32-32s-32 14.327-32 32v191.573c0 17.673 14.327 32 32 32z" />
<glyph unicode="&#xe913;" glyph-name="calendar-selected" d="M722.769 938.667c0 17.673-14.323 32-32 32-17.673 0-32-14.327-32-32v-62.72h-257.702v62.72c0 17.673-14.327 32-32 32s-32-14.327-32-32v-66.090c-136.368-21.12-241.068-138.977-241.068-281.643v-246.187c0-157.158 127.358-285.013 285.013-285.013 17.673 0 32 14.327 32 32s-14.327 32-32 32c-122.238 0-221.013 99.132-221.013 221.013v246.187c0 107.151 76.172 196.274 177.068 216.641v-60.481c0-17.673 14.327-32 32-32s32 14.327 32 32v64.853h257.702v-64.853c0-17.673 14.327-32 32-32 17.677 0 32 14.327 32 32v64.826c87.62-1.594 158.298-73.256 158.298-161.253 0-20.599-16.691-37.12-37.12-37.12h-574.293c-17.673 0-32-14.327-32-32s14.327-32 32-32h574.293c55.518 0 101.12 44.919 101.12 101.12 0 123.343-99.328 223.661-222.298 225.26v62.74zM921.186 359.667c12.497 12.497 12.497 32.755 0 45.252s-32.759 12.497-45.257 0l-238.507-238.507c-4.143-4.143-10.761-4.143-14.903 0l-95.573 95.573c-12.497 12.497-32.759 12.497-45.257 0s-12.497-32.755 0-45.252l95.573-95.573c29.137-29.137 76.279-29.137 105.417 0l238.507 238.507z" />
<glyph unicode="&#xe914;" glyph-name="check" d="M918.656 756.009l-511.998-511.998c-2.972-2.978-6.501-5.338-10.386-6.946-3.885-1.613-8.049-2.441-12.254-2.441s-8.369 0.828-12.254 2.441c-3.885 1.609-7.414 3.968-10.386 6.946l-224 224c-6.004 6.003-9.378 14.148-9.378 22.639s3.373 16.636 9.378 22.639c6.004 6.003 14.148 9.378 22.64 9.378s16.635-3.375 22.64-9.378l201.36-201.399 489.36 489.4c6.003 6.004 14.148 9.378 22.639 9.378s16.636-3.373 22.639-9.378c6.007-6.004 9.378-14.148 9.378-22.64s-3.371-16.635-9.378-22.64z" />
<glyph unicode="&#xe915;" glyph-name="clock" d="M512 906.667c-217.968 0-394.667-176.698-394.667-394.667 0-217.967 176.698-394.667 394.667-394.667 217.967 0 394.667 176.7 394.667 394.667 0 217.968-176.7 394.667-394.667 394.667zM53.333 512c0 253.315 205.352 458.667 458.667 458.667s458.667-205.352 458.667-458.667c0-253.316-205.35-458.667-458.667-458.667-253.315 0-458.667 205.35-458.667 458.667zM512 800c17.673 0 32-14.327 32-32v-236.224l152.977-76.489c15.808-7.902 22.217-27.123 14.31-42.931-7.902-15.808-27.123-22.217-42.931-14.31l-170.667 85.333c-10.842 5.419-17.69 16.499-17.69 28.621v256c0 17.673 14.327 32 32 32z" />
<glyph unicode="&#xe916;" glyph-name="coupon" d="M32 725.333c0 64.801 52.532 117.333 117.333 117.333h725.333c64.802 0 117.333-52.532 117.333-117.333v-426.667c0-64.802-52.531-117.333-117.333-117.333h-725.333c-64.801 0-117.333 52.531-117.333 117.333v426.667zM149.333 778.667c-29.455 0-53.333-23.878-53.333-53.333v-426.667c0-29.457 23.878-53.333 53.333-53.333h725.333c29.457 0 53.333 23.876 53.333 53.333v426.667c0 29.455-23.876 53.333-53.333 53.333h-725.333zM605.248 674.604c-3.162 1.84-6.652 3.032-10.274 3.51s-7.3 0.23-10.825-0.728c-3.529-0.958-6.831-2.607-9.719-4.853-2.884-2.246-5.299-5.044-7.108-8.232l-159.276-276.828c-1.832-3.174-3.020-6.677-3.496-10.317-0.475-3.635-0.229-7.33 0.725-10.867 0.954-3.541 2.597-6.857 4.834-9.758 2.237-2.897 5.024-5.325 8.199-7.134 4.154-2.547 8.97-3.793 13.83-3.584 4.873 0.021 9.651 1.31 13.875 3.746 4.224 2.432 7.744 5.926 10.219 10.138l159.279 276.832c1.894 3.156 3.132 6.665 3.639 10.314s0.277 7.364-0.683 10.921c-0.96 3.557-2.624 6.882-4.894 9.776-2.274 2.894-5.103 5.297-8.324 7.064zM482.999 582.327c0.969 25.517-8.149 50.383-25.365 69.179s-41.136 29.996-66.543 31.16c-25.446-1.164-49.409-12.35-66.697-31.132s-26.507-43.648-25.658-69.207c-0.968-25.634 8.197-50.615 25.497-69.495s41.332-30.127 66.858-31.292c25.488 1.161 49.476 12.425 66.705 31.317s26.291 43.878 25.203 69.47zM391.091 537.532c-10.695 1.242-20.49 6.609-27.317 14.967s-10.15 19.055-9.268 29.828c-0.998 10.799 2.282 21.554 9.131 29.94s16.713 13.722 27.454 14.854c10.708-1.129 20.532-6.482 27.309-14.883s9.952-19.159 8.829-29.911c1.003-10.726-2.215-21.423-8.971-29.798-6.755-8.371-16.507-13.756-27.168-14.997zM632.909 542.46c-25.408-1.165-49.327-12.365-66.543-31.159s-26.334-43.661-25.365-69.18c-1.088-25.591 7.974-50.573 25.203-69.47 17.229-18.893 41.216-30.157 66.705-31.317 25.527 1.165 49.557 12.412 66.859 31.292s26.466 43.861 25.498 69.495c0.845 25.562-8.371 50.423-25.66 69.21-17.289 18.782-41.25 29.965-66.697 31.13zM632.909 397.325c-10.662 1.242-20.412 6.626-27.17 14.997-6.754 8.375-9.971 19.072-8.969 29.798-1.003 10.726 2.214 21.423 8.969 29.798 6.758 8.371 16.508 13.756 27.17 14.997 10.743-1.135 20.604-6.473 27.456-14.857 6.848-8.384 10.129-19.14 9.131-29.939 0.879-10.773-2.445-21.47-9.271-29.828s-16.619-13.722-27.315-14.967z" />
<glyph unicode="&#xe917;" glyph-name="chevron-down" d="M865.323 673.332c-2.97 2.975-6.498 5.335-10.385 6.946-3.883 1.61-8.047 2.439-12.254 2.439-4.203 0-8.367-0.829-12.254-2.439-3.883-1.61-7.415-3.971-10.385-6.946l-297.361-297.4-297.359 297.4c-6.004 6.004-14.148 9.378-22.64 9.378s-16.636-3.373-22.64-9.378c-6.004-6.004-9.378-14.149-9.378-22.64s3.373-16.635 9.378-22.64l320-319.998c2.97-2.978 6.502-5.338 10.385-6.946 3.887-1.613 8.051-2.441 12.254-2.441 4.207 0 8.371 0.828 12.254 2.441 3.887 1.609 7.415 3.968 10.385 6.946l320 319.998c2.978 2.972 5.338 6.502 6.946 10.386 1.613 3.885 2.441 8.049 2.441 12.254s-0.828 8.369-2.441 12.254c-1.609 3.884-3.968 7.414-6.946 10.386z" />
<glyph unicode="&#xe918;" glyph-name="download" d="M128 416c17.673 0 32-14.327 32-32v-170.667c0-14.144 5.619-27.712 15.621-37.713s23.567-15.62 37.712-15.62h597.333c14.144 0 27.712 5.619 37.713 15.62s15.62 23.569 15.62 37.713v170.667c0 17.673 14.327 32 32 32s32-14.327 32-32v-170.667c0-31.117-12.361-60.962-34.368-82.965-22.003-22.007-51.849-34.368-82.965-34.368h-597.333c-31.119 0-60.963 12.361-82.967 34.368-22.004 22.003-34.366 51.849-34.366 82.965v170.667c0 17.673 14.327 32 32 32zM276.039 619.961c12.497 12.497 32.758 12.497 45.255 0l190.706-190.704 190.707 190.704c12.497 12.497 32.755 12.497 45.252 0s12.497-32.756 0-45.254l-213.333-213.333c-12.497-12.497-32.755-12.497-45.252 0l-213.335 213.333c-12.497 12.497-12.497 32.757 0 45.254zM512 928c17.673 0 32-14.327 32-32v-512c0-17.673-14.327-32-32-32s-32 14.327-32 32v512c0 17.673 14.327 32 32 32z" />
<glyph unicode="&#xe919;" glyph-name="facebook-outlined" d="M466.522 898.81c46.012 46.009 108.412 71.857 173.478 71.857h128c17.673 0 32-14.327 32-32v-170.667c0-17.673-14.327-32-32-32h-128c-2.829 0-5.542-1.124-7.543-3.124s-3.123-4.714-3.123-7.543v-96h138.667c9.856 0 19.157-4.54 25.225-12.307 6.063-7.767 8.209-17.895 5.82-27.454l-42.667-170.667c-3.563-14.246-16.358-24.239-31.044-24.239h-96v-309.333c0-17.673-14.327-32-32-32h-170.667c-17.673 0-32 14.327-32 32v309.333h-96c-17.673 0-32 14.327-32 32v170.667c0 17.673 14.327 32 32 32h96v96c0 65.066 25.847 127.468 71.855 173.477zM640 906.667c-48.094 0-94.217-19.105-128.222-53.111s-53.111-80.129-53.111-128.222v-128c0-17.673-14.327-32-32-32h-96v-106.667h96c17.673 0 32-14.327 32-32v-309.333h106.667v309.333c0 17.673 14.327 32 32 32h103.014l26.667 106.667h-129.681c-17.673 0-32 14.327-32 32v128c0 19.803 7.868 38.795 21.871 52.797s32.994 21.869 52.796 21.869h96v106.667h-96z" />
<glyph unicode="&#xe91a;" glyph-name="filter" d="M245.333 736c-26.51 0-48-21.49-48-48s21.49-48 48-48c26.51 0 48 21.49 48 48s-21.49 48-48 48zM133.333 688c0 61.856 50.144 112 112 112s112-50.144 112-112c0-61.856-50.144-112-112-112s-112 50.144-112 112zM293.333 688c0 17.673 14.327 32 32 32h533.333c17.673 0 32-14.327 32-32s-14.327-32-32-32h-533.333c-17.673 0-32 14.327-32 32zM778.667 394.667c-26.509 0-48-21.491-48-48s21.491-48 48-48c26.509 0 48 21.491 48 48s-21.491 48-48 48zM666.667 346.667c0 61.854 50.146 112 112 112s112-50.146 112-112c0-61.854-50.146-112-112-112s-112 50.146-112 112zM133.333 346.667c0 17.673 14.327 32 32 32h533.333c17.673 0 32-14.327 32-32s-14.327-32-32-32h-533.333c-17.673 0-32 14.327-32 32z" />
<glyph unicode="&#xe91b;" glyph-name="global" d="M931.413 364.373c18.347 49.493 28.587 102.4 28.587 158.293s-10.667 108.8-28.587 158.293c-0.427 2.133-1.28 3.84-2.133 5.547-66.133 171.947-232.96 294.827-427.947 294.827s-361.813-122.88-427.947-294.827c-0.853-1.707-1.707-3.84-2.133-5.973-18.347-49.493-28.587-102.4-28.587-157.867s10.24-108.8 28.587-157.867c0.427-2.133 1.28-3.84 2.133-5.973 66.133-171.947 232.96-294.827 427.947-294.827s361.813 122.88 427.947 294.827c0.853 1.707 1.707 3.84 2.133 5.547zM695.467 640h182.613c11.52-37.12 17.92-76.373 17.92-117.333s-6.4-80.213-17.92-117.333h-182.613c5.547 36.693 8.533 75.947 8.533 117.333s-2.987 80.64-8.533 117.333zM851.627 704h-168.107c-19.627 85.76-49.92 152.747-74.24 197.973 105.387-29.867 192.427-102.4 242.347-197.973zM640 522.667c0-41.387-3.413-80.64-9.387-117.333h-258.133c-5.973 36.693-9.387 75.947-9.387 117.333s3.413 80.64 9.387 117.333h258.56c5.973-36.267 9.387-75.52 9.387-117.333h-0.427zM526.507 916.053c17.92-26.88 63.147-101.973 90.88-212.053h-231.68c27.733 109.653 72.96 184.747 90.453 212.053 8.533 0.427 16.64 1.28 25.173 1.28s17.067-0.853 25.173-1.28zM393.387 901.973c-24.32-45.227-54.187-112.213-74.24-197.973h-168.107c49.493 95.573 136.96 168.107 242.347 197.973zM307.2 405.333h-182.613c-11.52 37.12-17.92 76.373-17.92 117.333s6.4 80.213 17.92 117.333h182.613c-5.547-36.693-8.533-75.947-8.533-117.333s2.987-80.64 8.533-117.333zM151.040 341.333h168.107c19.627-85.333 49.92-152.747 74.24-197.973-105.387 29.867-192.427 102.4-242.347 197.973zM476.16 129.28c-17.92 27.307-62.72 102.4-90.88 212.053h231.68c-27.733-109.653-72.96-184.747-90.88-212.053-8.533-0.427-16.64-1.28-25.173-1.28s-16.64 0.853-25.173 1.28h0.427zM609.28 143.36c24.32 45.227 54.187 112.213 74.24 197.973h168.107c-49.493-95.573-136.96-168.107-242.347-197.973z" />
<glyph unicode="&#xe91c;" glyph-name="instagram" d="M512 704c-37.973 0-75.093-11.261-106.67-32.358-31.574-21.097-56.183-51.084-70.715-86.166-14.532-35.085-18.334-73.69-10.926-110.933s25.694-71.454 52.546-98.308c26.852-26.85 61.064-45.137 98.307-52.544 37.244-7.411 75.849-3.61 110.933 10.923 35.081 14.532 65.067 39.142 86.165 70.716 21.099 31.578 32.358 68.698 32.358 106.671-0.051 50.906-20.297 99.71-56.294 135.706-35.994 35.995-84.8 56.241-135.706 56.294zM512 384c-25.314 0-50.065 7.505-71.113 21.572-21.050 14.063-37.456 34.057-47.144 57.442-9.688 23.39-12.223 49.126-7.284 73.958 4.939 24.828 17.13 47.637 35.031 65.537 17.9 17.901 40.709 30.092 65.537 35.031 24.832 4.939 50.569 2.404 73.958-7.284 23.386-9.688 43.379-26.094 57.442-47.144 14.067-21.047 21.572-45.798 21.572-71.113 0-33.946-13.487-66.505-37.491-90.509s-56.563-37.491-90.509-37.491zM704 928h-384c-59.389-0.064-116.327-23.684-158.322-65.678s-65.615-98.933-65.678-158.322v-384c0.064-59.388 23.684-116.326 65.678-158.323 41.995-41.993 98.933-65.613 158.322-65.677h384c59.388 0.064 116.326 23.684 158.323 65.677 41.993 41.997 65.613 98.935 65.677 158.323v384c-0.064 59.389-23.684 116.327-65.677 158.322-41.997 41.994-98.935 65.615-158.323 65.678zM864 320c0-42.436-16.858-83.132-46.865-113.135-30.003-30.007-70.699-46.865-113.135-46.865h-384c-42.435 0-83.131 16.858-113.137 46.865-30.006 30.003-46.863 70.699-46.863 113.135v384c0 42.435 16.857 83.131 46.863 113.137s70.703 46.863 113.137 46.863h384c42.436 0 83.132-16.857 113.135-46.863 30.007-30.006 46.865-70.703 46.865-113.137v-384zM768 720c0-9.493-2.816-18.774-8.090-26.668s-12.77-14.046-21.542-17.679c-8.768-3.633-18.419-4.584-27.733-2.732-9.31 1.852-17.865 6.423-24.576 13.136s-11.285 15.266-13.137 24.577c-1.852 9.311-0.9 18.962 2.731 27.733 3.635 8.771 9.788 16.268 17.681 21.542s17.173 8.090 26.667 8.090c12.732 0 24.939-5.057 33.941-14.059s14.059-21.211 14.059-33.941z" />
<glyph unicode="&#xe91d;" glyph-name="language" d="M672 576c0-8.486-3.371-16.627-9.374-22.626-5.999-6.003-14.14-9.374-22.626-9.374h-256c-8.487 0-16.626 3.371-22.627 9.374-6.001 5.999-9.373 14.14-9.373 22.626s3.372 16.627 9.373 22.627c6.001 6.001 14.141 9.373 22.627 9.373h256c8.486 0 16.627-3.372 22.626-9.373 6.003-6 9.374-14.141 9.374-22.627zM640 480h-256c-8.487 0-16.626-3.371-22.627-9.374-6.001-5.999-9.373-14.14-9.373-22.626s3.372-16.627 9.373-22.626c6.001-6.003 14.141-9.374 22.627-9.374h256c8.486 0 16.627 3.371 22.626 9.374 6.003 5.999 9.374 14.14 9.374 22.626s-3.371 16.627-9.374 22.626c-5.999 6.003-14.14 9.374-22.626 9.374zM928 512c0.017-71.821-18.564-142.421-53.931-204.932-35.362-62.511-86.31-114.803-147.883-151.782-61.568-36.979-131.665-57.387-203.46-59.238-71.799-1.852-142.852 14.916-206.246 48.674l-136.2-45.402c-11.276-3.759-23.377-4.305-34.947-1.574s-22.15 8.627-30.555 17.033c-8.405 8.405-14.304 18.987-17.034 30.554-2.73 11.571-2.185 23.671 1.576 34.948l45.4 136.201c-29.674 55.791-46.248 117.611-48.464 180.762s9.984 125.98 35.675 183.713c25.69 57.733 64.196 108.855 112.594 149.486s105.416 69.7 166.726 85.004c61.308 15.304 125.3 16.44 187.115 3.32s119.829-40.148 169.638-79.036c49.809-38.887 90.103-88.611 117.824-145.397 27.725-56.785 42.146-119.139 42.172-182.332zM864 512c-0.017 53.995-12.45 107.263-36.348 155.682s-58.611 90.693-101.461 123.549c-42.846 32.856-92.681 55.415-145.638 65.93-52.962 10.516-107.635 8.706-159.783-5.289-52.15-13.994-100.381-39.798-140.963-75.415s-72.425-80.093-93.068-129.987c-20.642-49.891-29.53-103.869-25.975-157.744 3.555-53.879 19.457-106.219 46.476-152.964 2.268-3.925 3.676-8.286 4.131-12.796s-0.053-9.067-1.491-13.363l-49.88-149.602 149.6 49.882c3.258 1.109 6.677 1.677 10.12 1.677 5.62-0.009 11.139-1.498 16-4.318 53.512-30.963 114.234-47.283 176.058-47.322s122.564 16.205 176.115 47.1c53.551 30.891 98.022 75.345 128.939 128.883 30.912 53.538 47.181 114.274 47.168 176.098z" />
<glyph unicode="&#xe91e;" glyph-name="chevron-left" d="M662.626 790.627c12.497-12.497 12.497-32.758 0-45.255l-233.37-233.373 233.37-233.374c12.497-12.497 12.497-32.755 0-45.252s-32.755-12.497-45.252 0l-256.001 256c-12.497 12.497-12.497 32.755 0 45.252l256.001 256.001c12.497 12.497 32.755 12.497 45.252 0z" />
<glyph unicode="&#xe91f;" glyph-name="link" d="M552.491 898.964c46.268 44.689 108.241 69.417 172.565 68.858 64.329-0.559 125.858-26.36 171.345-71.847s71.287-107.020 71.846-171.345c0.559-64.326-24.166-126.297-68.855-172.566l-0.388-0.401-128-127.991c-24.87-24.883-54.801-44.122-87.761-56.418s-68.181-17.357-103.27-14.844c-35.089 2.513-69.231 12.544-100.1 29.41-30.874 16.866-57.758 40.175-78.83 68.348-10.586 14.153-7.695 34.206 6.457 44.791s34.207 7.693 44.793-6.46c15.573-20.821 35.443-38.050 58.261-50.517 22.822-12.467 48.055-19.878 73.988-21.734 25.937-1.86 51.968 1.882 76.331 10.97s46.485 23.309 64.87 41.698l127.799 127.799c32.913 34.181 51.123 79.904 50.709 127.36-0.414 47.545-19.486 93.026-53.103 126.646-33.621 33.621-79.104 52.692-126.647 53.105-47.471 0.413-93.21-17.807-127.39-50.741l-73.216-72.79c-12.535-12.46-32.794-12.401-45.257 0.132-12.459 12.533-12.399 32.794 0.132 45.254l73.719 73.284zM340.759 656.746c32.961 12.296 68.18 17.359 103.269 14.845s69.231-12.543 100.1-29.411c30.874-16.867 57.758-40.176 78.831-68.348 10.586-14.153 7.693-34.206-6.46-44.791s-34.206-7.693-44.791 6.46c-15.573 20.821-35.443 38.050-58.261 50.517-22.822 12.465-48.055 19.879-73.988 21.737-25.937 1.857-51.969-1.885-76.332-10.972s-46.485-23.309-64.868-41.698l-127.8-127.799c-32.914-34.18-51.122-79.902-50.71-127.36 0.413-47.543 19.484-93.026 53.105-126.647 33.62-33.617 79.101-52.689 126.646-53.103 47.456-0.414 93.179 17.796 127.36 50.709l72.755 72.755c12.497 12.497 32.755 12.497 45.252 0s12.497-32.755 0-45.252l-73.353-73.353c-46.27-44.693-108.245-69.414-172.57-68.855s-125.858 26.359-171.345 71.846c-45.487 45.487-71.288 107.017-71.847 171.345-0.559 64.324 24.169 126.298 68.859 172.565l0.386 0.401 128 127.993c0.001 0.002-0.002-0.001 0 0 24.87 24.879 54.804 44.121 87.763 56.416z" />
<glyph unicode="&#xe920;" glyph-name="location" d="M512 871.111c-76.382 0-149.636-30.342-203.647-84.353s-84.353-127.264-84.353-203.645c0-111.582 72.503-219.337 151.23-302.438 38.709-40.858 77.527-74.295 106.703-97.532 11.891-9.468 22.14-17.207 30.067-23.027 7.927 5.82 18.176 13.559 30.067 23.027 29.175 23.236 67.994 56.674 106.701 97.532 78.729 83.102 151.232 190.857 151.232 302.438 0 76.381-30.345 149.635-84.352 203.645-54.012 54.010-127.266 84.353-203.648 84.353zM512 120.887c-17.749-26.624-17.758-26.62-17.766-26.611l-0.098 0.064-0.23 0.154-0.802 0.542c-0.683 0.465-1.664 1.135-2.918 2.001-2.505 1.737-6.114 4.275-10.671 7.565-9.105 6.575-22.012 16.183-37.449 28.476-30.822 24.546-72.005 59.998-113.295 103.582-81.273 85.79-168.77 209.143-168.77 346.453 0 93.355 37.085 182.887 103.098 248.9s155.545 103.098 248.902 103.098c93.355 0 182.891-37.085 248.9-103.098 66.014-66.013 103.1-155.546 103.1-248.9 0-137.31-87.497-260.663-168.768-346.453-41.293-43.584-82.475-79.036-113.297-103.582-15.437-12.292-28.343-21.901-37.449-28.476-4.557-3.29-8.166-5.828-10.671-7.565-1.254-0.866-2.236-1.536-2.918-2.001l-0.802-0.542-0.23-0.154-0.073-0.047c-0.009-0.009-0.043-0.030-17.792 26.594zM512 120.887l17.749-26.624c-10.748-7.168-24.768-7.155-35.516 0.013l17.766 26.611zM512 657.777c-41.237 0-74.667-33.429-74.667-74.665s33.429-74.667 74.667-74.667 74.667 33.429 74.667 74.667c0 41.236-33.429 74.665-74.667 74.665zM373.333 583.113c0 76.582 62.084 138.665 138.667 138.665s138.667-62.083 138.667-138.665c0-76.587-62.084-138.667-138.667-138.667s-138.667 62.080-138.667 138.667z" />
<glyph unicode="&#xe921;" glyph-name="lock" d="M832 704h-128v96c0 50.921-20.228 99.758-56.235 135.764s-84.843 56.236-135.765 56.236c-50.923 0-99.758-20.229-135.764-56.236s-56.236-84.843-56.236-135.764v-96h-128c-16.974 0-33.253-6.743-45.255-18.745s-18.745-28.281-18.745-45.255v-448c0-16.973 6.743-33.254 18.745-45.257s28.281-18.743 45.255-18.743h640c16.973 0 33.254 6.741 45.257 18.743s18.743 28.284 18.743 45.257v448c0 16.974-6.741 33.253-18.743 45.255s-28.284 18.745-45.257 18.745zM384 800c0 33.948 13.486 66.505 37.49 90.51s56.564 37.49 90.51 37.49c33.946 0 66.505-13.486 90.509-37.49s37.491-56.562 37.491-90.51v-96h-256v96zM832 192h-640v448h640v-448zM560 416c0-9.493-2.816-18.773-8.090-26.667s-12.77-14.046-21.542-17.681c-8.768-3.631-18.419-4.582-27.733-2.731-9.31 1.852-17.865 6.426-24.576 13.137s-11.285 15.266-13.137 24.576c-1.852 9.314-0.9 18.965 2.731 27.733 3.635 8.772 9.788 16.269 17.681 21.542s17.173 8.090 26.667 8.090c12.732 0 24.939-5.056 33.941-14.059s14.059-21.21 14.059-33.941z" />
<glyph unicode="&#xe922;" glyph-name="lock-open" d="M832 704h-448v96c0 33.948 13.486 66.505 37.49 90.51s56.564 37.49 90.51 37.49c61.478 0 116.8-44 128.64-102.36 1.758-8.247 6.699-15.466 13.751-20.090s15.642-6.277 23.906-4.601c8.265 1.676 15.531 6.545 20.224 13.551s6.434 15.579 4.838 23.859c-18.082 89.040-98.56 153.64-191.36 153.64-50.906-0.053-99.71-20.299-135.706-56.294s-56.241-84.801-56.294-135.706v-96h-128c-16.974 0-33.253-6.743-45.255-18.745s-18.745-28.281-18.745-45.255v-448c0-16.973 6.743-33.254 18.745-45.257s28.281-18.743 45.255-18.743h640c16.973 0 33.254 6.741 45.257 18.743s18.743 28.284 18.743 45.257v448c0 16.974-6.741 33.253-18.743 45.255s-28.284 18.745-45.257 18.745zM832 192h-640v448h640v-448zM560 416c0-9.493-2.816-18.773-8.090-26.667s-12.77-14.046-21.542-17.681c-8.768-3.631-18.419-4.582-27.733-2.731-9.31 1.852-17.865 6.426-24.576 13.137s-11.285 15.266-13.137 24.576c-1.852 9.314-0.9 18.965 2.731 27.733 3.635 8.772 9.788 16.269 17.681 21.542s17.173 8.090 26.667 8.090c12.732 0 24.939-5.056 33.941-14.059s14.059-21.21 14.059-33.941z" />
<glyph unicode="&#xe923;" glyph-name="log-in" d="M215.7 893.634c22.004 22.004 51.848 34.366 82.967 34.366h426.667c31.117 0 60.962-12.362 82.965-34.366 22.007-22.004 34.368-51.848 34.368-82.967v-42.667c0-17.673-14.327-32-32-32s-32 14.327-32 32v42.667c0 14.145-5.619 27.71-15.62 37.712s-23.569 15.621-37.713 15.621h-426.667c-14.145 0-27.71-5.619-37.712-15.621s-15.621-23.567-15.621-37.712v-597.333c0-14.144 5.619-27.712 15.621-37.713s23.567-15.62 37.712-15.62h426.667c14.144 0 27.712 5.619 37.713 15.62s15.62 23.569 15.62 37.713v42.667c0 17.673 14.327 32 32 32s32-14.327 32-32v-42.667c0-31.117-12.361-60.962-34.368-82.965-22.003-22.007-51.849-34.368-82.965-34.368h-426.667c-31.119 0-60.963 12.361-82.967 34.368-22.004 22.003-34.366 51.849-34.366 82.965v597.333c0 31.119 12.362 60.963 34.366 82.967zM662.626 662.627c-12.497 12.497-32.755 12.497-45.252 0l-128-128.001c-12.497-12.497-12.497-32.755 0-45.252l128-128c12.497-12.497 32.755-12.497 45.252 0s12.497 32.755 0 45.252l-73.37 73.374h221.41c17.673 0 32 14.327 32 32s-14.327 32-32 32h-221.41l73.37 73.373c12.497 12.497 12.497 32.758 0 45.255z" />
<glyph unicode="&#xe924;" glyph-name="log-out" d="M215.7 893.634c22.004 22.004 51.848 34.366 82.967 34.366h426.667c31.117 0 60.962-12.362 82.965-34.366 22.007-22.004 34.368-51.848 34.368-82.967v-42.667c0-17.673-14.327-32-32-32s-32 14.327-32 32v42.667c0 14.145-5.619 27.71-15.62 37.712s-23.569 15.621-37.713 15.621h-426.667c-14.145 0-27.71-5.619-37.712-15.621s-15.621-23.567-15.621-37.712v-597.333c0-14.144 5.619-27.712 15.621-37.713s23.567-15.62 37.712-15.62h426.667c14.144 0 27.712 5.619 37.713 15.62s15.62 23.569 15.62 37.713v42.667c0 17.673 14.327 32 32 32s32-14.327 32-32v-42.667c0-31.117-12.361-60.962-34.368-82.965-22.003-22.007-51.849-34.368-82.965-34.368h-426.667c-31.119 0-60.963 12.361-82.967 34.368-22.004 22.003-34.366 51.849-34.366 82.965v597.333c0 31.119 12.362 60.963 34.366 82.967zM660.041 662.627c12.497 12.497 32.755 12.497 45.252 0l128-128.001c12.497-12.497 12.497-32.755 0-45.252l-128-128c-12.497-12.497-32.755-12.497-45.252 0s-12.497 32.755 0 45.252l73.37 73.374h-221.41c-17.673 0-32 14.327-32 32s14.327 32 32 32h221.41l-73.37 73.373c-12.497 12.497-12.497 32.758 0 45.255z" />
<glyph unicode="&#xe925;" glyph-name="mail" d="M146.923 764.201c6.123 20.462 25.215 35.552 47.558 35.552h635.040c22.34 0 41.434-15.090 47.556-35.552l-365.077-255.554-365.077 255.554zM85.335 750.638c-0.005-0.289-0.005-0.578-0.001-0.866v-475.911c0-60.1 49.048-109.146 109.147-109.146h635.040c60.096 0 109.146 49.045 109.146 109.146v475.911zM879.134 692.967v-419.107c0-27.217-22.396-49.613-49.613-49.613h-635.040c-27.219 0-49.612 22.396-49.612 49.613v419.107l350.061-245.044c10.249-7.172 23.893-7.172 34.142 0l350.063 245.044zM938.667 750.638c-0.273 59.872-49.216 108.649-109.146 108.649h-635.040c-59.933 0-108.876-48.778-109.146-108.649z" />
<glyph unicode="&#xe926;" glyph-name="menu" d="M96 810.667c0 17.673 14.327 32 32 32h768c17.673 0 32-14.327 32-32s-14.327-32-32-32h-768c-17.673 0-32 14.327-32 32zM96 512c0 17.673 14.327 32 32 32h768c17.673 0 32-14.327 32-32s-14.327-32-32-32h-768c-17.673 0-32 14.327-32 32zM437.333 213.333c0 17.673 14.327 32 32 32h426.667c17.673 0 32-14.327 32-32s-14.327-32-32-32h-426.667c-17.673 0-32 14.327-32 32z" />
<glyph unicode="&#xe927;" glyph-name="minus" d="M160.004 512c0 17.673 14.327 32 32 32h640c17.673 0 32-14.327 32-32s-14.327-32-32-32h-640c-17.673 0-32 14.327-32 32z" />
<glyph unicode="&#xe928;" glyph-name="phone" d="M837.973 66.987c-3.413 0-7.253 0-10.667 0.427-136.107 14.933-268.373 61.867-382.72 136.107-106.24 67.413-197.973 159.147-265.813 265.813-74.24 114.773-121.173 247.467-135.68 383.573-1.707 16.64 0 32.853 5.547 48.64 5.12 15.36 13.653 29.44 24.747 41.813 11.093 11.947 24.32 21.76 39.253 28.16s30.72 9.813 47.36 9.813h128c28.16 0.853 55.893-9.813 77.227-28.587 21.76-18.347 35.84-44.373 39.68-72.533 5.12-38.827 14.506-76.8 28.16-113.067 7.68-20.907 9.387-43.52 4.693-65.707s-15.36-42.24-31.147-58.027l-36.693-36.693c52.907-85.76 125.013-157.867 210.773-210.773l36.693 36.693c16.213 15.787 36.267 26.88 58.027 31.573 22.187 4.693 44.8 2.987 65.707-5.12 36.267-13.653 74.24-23.040 112.64-28.16 29.013-4.267 54.613-18.347 73.387-40.533 18.347-21.76 28.587-49.493 27.733-78.507v-127.573c0-16.213-3.413-32.427-9.813-47.36s-16.213-28.16-28.16-39.253c-11.947-11.093-26.027-19.627-41.813-24.747-12.373-4.267-24.747-6.4-37.547-6.4l0.427 0.427zM288.853 917.333h-128.854c-7.253 0-14.933-1.707-21.333-4.693-6.827-2.987-12.8-7.253-17.92-12.8s-8.96-11.947-11.093-18.773c-2.56-6.827-3.414-14.507-2.56-21.76 13.227-125.867 56.747-248.747 125.867-355.413 62.72-98.56 147.626-183.893 246.187-246.187 106.24-69.12 228.693-112.64 354.56-126.293 6.827-0.853 14.080 0 21.333 2.56s13.227 5.973 18.773 11.093c5.547 5.12 9.813 11.093 12.8 17.92s4.693 14.080 4.267 21.76v128.853c0 13.227-4.267 25.6-12.8 35.84-8.533 9.813-20.48 16.64-33.28 18.347-43.093 5.547-85.76 16.213-126.72 31.573-9.813 3.413-20.053 4.267-29.867 2.133s-19.2-7.253-26.453-14.080l-54.187-54.187c-10.24-10.24-26.027-12.373-38.4-5.12-111.787 63.573-204.373 156.16-267.947 267.947-7.253 12.373-5.12 28.16 5.12 38.4l54.187 54.187c7.253 7.253 11.947 16.213 14.080 26.453 2.133 9.813 1.28 20.48-2.133 29.867-15.36 40.96-26.027 83.627-31.573 127.147-1.707 12.373-8.107 24.32-17.92 32.853s-22.187 12.8-34.56 12.8l0.427-0.427z" />
<glyph unicode="&#xe929;" glyph-name="reset" d="M896 512c0.009-100.958-39.74-197.854-110.639-269.722-70.903-71.868-167.253-112.922-268.203-114.278h-5.158c-98.071-0.243-192.469 37.286-263.6 104.798-3.055 2.893-5.51 6.353-7.226 10.193-1.716 3.836-2.66 7.974-2.777 12.177s0.595 8.388 2.095 12.314c1.5 3.93 3.759 7.522 6.648 10.577s6.352 5.513 10.19 7.228c3.838 1.715 7.977 2.658 12.18 2.778 4.203 0.115 8.387-0.597 12.315-2.095 3.928-1.502 7.521-3.759 10.576-6.647 45.752-43.149 103.203-71.859 165.179-82.547 61.973-10.684 125.722-2.871 183.283 22.46 57.557 25.335 106.377 67.068 140.356 119.987s51.614 114.675 50.701 177.557c-0.917 62.882-20.339 124.099-55.846 176.006-35.503 51.907-85.517 92.202-143.787 115.85-58.274 23.649-122.223 29.603-183.859 17.118-61.638-12.484-118.229-42.854-162.707-87.314-0.327-0.354-0.674-0.687-1.040-1l-106.32-97.44h109.64c8.487 0 16.626-3.372 22.627-9.373s9.373-14.141 9.373-22.627c0-8.487-3.372-16.627-9.373-22.626-6.001-6.003-14.141-9.374-22.627-9.374h-192c-8.487 0-16.626 3.371-22.627 9.374-6.001 5.999-9.373 14.139-9.373 22.626v192c0 8.487 3.372 16.626 9.373 22.627s14.141 9.373 22.627 9.373c8.487 0 16.626-3.372 22.627-9.373s9.373-14.141 9.373-22.627v-119.2l113 103.2c53.759 53.551 122.179 89.973 196.619 104.671 74.445 14.697 151.573 7.011 221.649-22.090 70.080-29.101 129.963-78.311 172.096-141.418s64.623-137.283 64.636-213.162z" />
<glyph unicode="&#xe92a;" glyph-name="chevron-right" d="M308.053 843.948c-2.975-2.972-5.335-6.502-6.946-10.386s-2.439-8.049-2.439-12.254c0-4.205 0.829-8.369 2.439-12.254s3.971-7.414 6.946-10.386l297.399-297.36-297.399-297.361c-6.004-6.003-9.378-14.148-9.378-22.639s3.373-16.636 9.378-22.639c6.004-6.003 14.148-9.378 22.64-9.378s16.636 3.375 22.64 9.378l320.002 320c2.974 2.97 5.333 6.502 6.942 10.385 1.613 3.887 2.441 8.047 2.441 12.254s-0.828 8.371-2.441 12.254c-1.609 3.887-3.968 7.415-6.942 10.385l-320.002 320.002c-2.972 2.975-6.502 5.335-10.386 6.946s-8.049 2.439-12.254 2.439c-4.205 0-8.369-0.829-12.254-2.439s-7.414-3.971-10.386-6.946z" />
<glyph unicode="&#xe92b;" glyph-name="search" d="M205.347 818.653c70.013 70.014 164.972 109.347 263.986 109.347 99.012 0 193.971-39.333 263.987-109.347 70.012-70.013 109.346-164.972 109.346-263.986 0-88.29-31.275-173.359-87.689-240.388l163.648-163.652c12.497-12.497 12.497-32.755 0-45.252s-32.755-12.497-45.252 0l-163.652 163.648c-67.029-56.414-152.098-87.689-240.388-87.689-99.014 0-193.973 39.334-263.986 109.346-70.014 70.016-109.347 164.975-109.347 263.987 0 99.014 39.333 193.973 109.347 263.986zM469.333 864c-82.040 0-160.721-32.591-218.732-90.602s-90.602-136.691-90.602-218.732c0-82.039 32.591-160.721 90.602-218.731 58.011-58.014 136.691-90.603 218.732-90.603s160.721 32.589 218.731 90.603c58.014 58.010 90.603 136.691 90.603 218.731s-32.589 160.721-90.603 218.732c-58.010 58.011-136.691 90.602-218.731 90.602z" />
<glyph unicode="&#xe92c;" glyph-name="share" d="M746.667 873.778c-48.602 0-88-39.399-88-88s39.398-88 88-88c48.602 0 88 39.399 88 88s-39.398 88-88 88zM600 785.778c0 81.002 65.664 146.667 146.667 146.667s146.667-65.665 146.667-146.667c0-81.002-65.664-146.667-146.667-146.667s-146.667 65.665-146.667 146.667zM277.333 600c-48.601 0-88-39.398-88-88s39.399-88 88-88c48.601 0 88 39.398 88 88s-39.399 88-88 88zM130.667 512c0 81.003 65.665 146.667 146.667 146.667s146.667-65.664 146.667-146.667c0-81.003-65.665-146.667-146.667-146.667s-146.667 65.664-146.667 146.667zM746.667 326.221c-48.602 0-88-39.398-88-88s39.398-88 88-88c48.602 0 88 39.398 88 88s-39.398 88-88 88zM600 238.221c0 81.003 65.664 146.667 146.667 146.667s146.667-65.664 146.667-146.667c0-80.998-65.664-146.667-146.667-146.667s-146.667 65.668-146.667 146.667zM353.287 467.712c8.157 13.995 26.116 18.731 40.113 10.573l267.127-155.661c13.999-8.158 18.735-26.116 10.577-40.111-8.158-13.999-26.116-18.735-40.111-10.577l-267.13 155.661c-13.997 8.158-18.732 26.116-10.576 40.115zM670.703 741.505c8.166-13.992 3.443-31.954-10.547-40.119l-266.74-155.662c-13.992-8.166-31.954-3.443-40.12 10.547-8.166 13.995-3.442 31.957 10.55 40.124l266.737 155.66c13.995 8.166 31.953 3.442 40.119-10.55z" />
<glyph unicode="&#xe92d;" glyph-name="star" d="M956.796 634.84c-3.874 11.945-11.179 22.485-21.001 30.309s-21.73 12.585-34.236 13.691l-237.564 20.48-93.12 221.44c-4.847 11.619-13.022 21.545-23.501 28.526s-22.788 10.706-35.379 10.706c-12.587 0-24.896-3.725-35.375-10.706s-18.654-16.906-23.505-28.526l-92.838-221.44-237.84-20.6c-12.559-1.055-24.526-5.795-34.402-13.624s-17.22-18.401-21.111-30.388c-3.892-11.987-4.158-24.856-0.765-36.993 3.393-12.136 10.294-23.003 19.837-31.233l180.44-157.679-54.080-234.163c-2.86-12.254-2.043-25.075 2.346-36.868s12.158-22.033 22.334-29.431c10.176-7.403 22.308-11.639 34.879-12.186 12.571-0.542 25.024 2.633 35.801 9.126l204.001 124.002 204.437-124.002c10.778-6.494 23.232-9.668 35.802-9.126 12.574 0.546 24.704 4.783 34.88 12.186 10.176 7.398 17.946 17.638 22.336 29.431 4.386 11.793 5.205 24.614 2.342 36.868l-54.037 234.402 180.399 157.44c9.545 8.26 16.431 19.153 19.797 31.318 3.366 12.163 3.059 25.050-0.879 37.041zM895.919 614.84l-180.403-157.441c-8.777-7.637-15.309-17.523-18.889-28.595s-4.075-22.912-1.429-34.244l54.199-234.56-204.279 124.002c-9.967 6.067-21.41 9.28-33.079 9.28s-23.113-3.213-33.079-9.28l-204.001-124.002 53.84 234.402c2.646 11.332 2.152 23.168-1.428 34.24s-10.112 20.962-18.892 28.599l-180.48 157.359c-0.015 0.119-0.015 0.241 0 0.36l237.76 20.56c11.608 1.023 22.717 5.196 32.127 12.069s16.766 16.185 21.273 26.931l92.838 221.16 92.8-221.16c4.51-10.746 11.866-20.058 21.274-26.931 9.412-6.873 20.518-11.046 32.128-12.069l237.798-20.56v-0.28l-0.077 0.16z" />
<glyph unicode="&#xe92e;" glyph-name="tick" d="M694.639 630.64c2.974-2.972 5.338-6.502 6.946-10.386 1.613-3.885 2.441-8.049 2.441-12.254s-0.828-8.369-2.441-12.254c-1.609-3.887-3.972-7.415-6.946-10.385l-224-224c-2.97-2.978-6.502-5.338-10.385-6.946-3.887-1.613-8.047-2.441-12.254-2.441s-8.371 0.828-12.254 2.441c-3.887 1.609-7.415 3.968-10.387 6.946l-96 96c-6.004 6.003-9.378 14.148-9.378 22.639s3.373 16.636 9.378 22.639c6.005 6.007 14.149 9.378 22.64 9.378s16.635-3.371 22.64-9.378l73.36-73.399 201.361 201.401c2.97 2.975 6.498 5.335 10.385 6.946 3.883 1.61 8.047 2.439 12.254 2.439s8.367-0.829 12.254-2.439c3.883-1.61 7.415-3.971 10.385-6.946zM512 906.667c-217.968 0-394.667-176.698-394.667-394.667 0-217.967 176.698-394.667 394.667-394.667 217.967 0 394.667 176.7 394.667 394.667 0 217.968-176.7 394.667-394.667 394.667zM53.333 512c0 253.315 205.352 458.667 458.667 458.667s458.667-205.352 458.667-458.667c0-253.316-205.35-458.667-458.667-458.667-253.315 0-458.667 205.35-458.667 458.667z" />
<glyph unicode="&#xe92f;" glyph-name="chevron-up" d="M865.323 350.669c-2.97-2.974-6.498-5.338-10.385-6.946-3.883-1.613-8.047-2.441-12.254-2.441-4.203 0-8.367 0.828-12.254 2.441-3.883 1.609-7.415 3.972-10.385 6.946l-297.361 297.399-297.359-297.399c-6.004-6.003-14.148-9.378-22.64-9.378s-16.636 3.375-22.64 9.378c-6.004 6.003-9.378 14.148-9.378 22.639s3.373 16.636 9.378 22.639l320 320.002c2.97 2.975 6.502 5.335 10.385 6.946 3.887 1.61 8.051 2.439 12.254 2.439 4.207 0 8.371-0.829 12.254-2.439 3.887-1.61 7.415-3.971 10.385-6.946l320-320.002c2.978-2.97 5.338-6.498 6.946-10.385 1.613-3.883 2.441-8.047 2.441-12.254s-0.828-8.367-2.441-12.254c-1.609-3.883-3.968-7.415-6.946-10.385z" />
<glyph unicode="&#xe930;" glyph-name="times" d="M854.626 854.627c12.497-12.497 12.497-32.758 0-45.255l-639.999-639.999c-12.497-12.497-32.758-12.497-45.255 0s-12.497 32.755 0 45.252l640.001 640.001c12.497 12.497 32.755 12.497 45.252 0zM169.373 854.627c12.497 12.497 32.758 12.497 45.255 0l639.999-640.001c12.497-12.497 12.497-32.755 0-45.252s-32.755-12.497-45.252 0l-640.001 639.999c-12.497 12.497-12.497 32.758 0 45.255z" />
<glyph unicode="&#xe931;" glyph-name="user" d="M923.682 176c-60.924 105.318-154.803 180.838-264.363 216.64 54.195 32.26 96.299 81.421 119.851 139.93 23.548 58.505 27.243 123.126 10.513 183.936s-52.958 114.447-103.125 152.673c-50.163 38.227-111.488 58.93-174.558 58.93s-124.394-20.703-174.559-58.93c-50.164-38.227-86.393-91.863-103.123-152.673s-13.036-125.431 10.514-183.936c23.55-58.509 65.655-107.669 119.849-139.93-109.56-35.759-203.44-111.279-264.36-216.64-2.234-3.644-3.716-7.697-4.358-11.921s-0.432-8.533 0.619-12.676c1.050-4.143 2.92-8.034 5.498-11.439 2.578-3.409 5.813-6.268 9.513-8.401 3.7-2.138 7.791-3.516 12.031-4.045s8.544-0.205 12.657 0.951c4.113 1.161 7.952 3.132 11.291 5.798s6.109 5.978 8.148 9.732c75.36 130.24 208.56 208 356.279 208s280.922-77.76 356.279-208c2.039-3.755 4.813-7.066 8.149-9.732 3.341-2.667 7.177-4.638 11.29-5.798 4.113-1.156 8.418-1.481 12.659-0.951 4.237 0.529 8.329 1.907 12.028 4.045 3.703 2.133 6.938 4.992 9.515 8.401 2.577 3.405 4.45 7.296 5.5 11.439s1.263 8.452 0.619 12.676c-0.644 4.224-2.125 8.277-4.356 11.921zM288 640c0 44.303 13.137 87.611 37.751 124.448s59.598 65.548 100.528 82.502c40.929 16.954 85.968 21.39 129.42 12.747s83.366-29.977 114.692-61.304c31.326-31.327 52.663-71.24 61.303-114.692 8.644-43.452 4.207-88.492-12.745-129.422-16.956-40.93-45.666-75.913-82.5-100.527-36.838-24.614-80.145-37.751-124.45-37.751-59.388 0.064-116.327 23.684-158.321 65.677-41.994 41.997-65.615 98.935-65.678 158.323z" />
<glyph unicode="&#xe932;" glyph-name="play" d="M960 512c0.026-10.867-2.761-21.551-8.085-31.023-5.329-9.468-13.013-17.399-22.315-23.019l-576.32-352.559c-9.716-5.948-20.845-9.199-32.237-9.408-11.392-0.213-22.633 2.624-32.563 8.209-9.836 5.5-18.029 13.517-23.738 23.232-5.708 9.719-8.726 20.779-8.742 32.047v705.040c0.017 11.269 3.034 22.33 8.742 32.045s13.902 17.736 23.738 23.235c9.93 5.586 21.172 8.42 32.563 8.209s22.52-3.459 32.237-9.409l576.32-352.558c9.301-5.619 16.986-13.551 22.315-23.019 5.325-9.472 8.111-20.16 8.085-31.023z" />
<glyph unicode="&#xe933;" glyph-name="whatsapp" d="M739.746 455.305l-128 64c-5.039 2.513-10.654 3.648-16.269 3.298-5.619-0.35-11.046-2.176-15.731-5.295l-58.761-39.202c-26.974 14.831-49.173 37.026-64 64l39.198 58.761c3.119 4.687 4.945 10.113 5.299 15.732 0.35 5.618-0.789 11.23-3.298 16.268l-64 128c-2.654 5.357-6.754 9.864-11.837 13.010s-10.946 4.805-16.924 4.79c-42.435 0-83.131-16.857-113.137-46.863s-46.863-70.703-46.863-113.137c0.106-93.325 37.225-182.797 103.215-248.785s155.463-103.108 248.783-103.215c21.013 0 41.818 4.139 61.231 12.181 19.413 8.038 37.052 19.823 51.908 34.679 14.857 14.861 26.641 32.499 34.684 51.908 8.038 19.413 12.177 40.218 12.177 61.231 0.004 5.943-1.647 11.772-4.77 16.832s-7.59 9.148-12.907 11.806zM597.423 330.667c-76.356 0.085-149.559 30.455-203.552 84.446-53.992 53.995-84.362 127.198-84.447 203.554-0.006 22.195 7.678 43.707 21.746 60.874s33.65 28.93 55.414 33.286l45.919-92-39.079-58.16c-2.921-4.382-4.715-9.412-5.224-14.656-0.509-5.239 0.282-10.522 2.304-15.386 22.895-54.413 66.183-97.702 120.6-120.597 4.877-2.112 10.202-2.978 15.492-2.517 5.295 0.461 10.389 2.231 14.827 5.154l58.441 38.963 92.002-45.922c-4.39-21.79-16.205-41.378-33.429-55.428-17.22-14.050-38.784-21.687-61.013-21.611zM501.423 938.667c-71.821 0.016-142.422-18.563-204.933-53.929s-114.8-86.313-151.779-147.883c-36.979-61.57-57.388-131.665-59.239-203.462-1.852-71.799 14.917-142.852 48.672-206.246l-45.4-136.201c-3.761-11.277-4.306-23.377-1.576-34.948 2.73-11.567 8.629-22.148 17.034-30.554s18.986-14.302 30.555-17.033c11.569-2.731 23.671-2.185 34.947 1.574l136.2 45.402c55.791-29.675 117.609-46.251 180.76-48.465 63.155-2.214 125.982 9.984 183.714 35.674s108.855 64.196 149.487 112.593c40.627 48.401 69.7 105.417 85.005 166.729 15.305 61.308 16.439 125.299 3.319 187.115-13.12 61.815-40.149 119.828-79.036 169.637s-88.61 90.104-145.399 117.827c-56.785 27.723-119.138 42.144-182.332 42.17zM501.423 170.667c-61.879-0.043-122.675 16.252-176.239 47.241-3.921 2.274-8.282 3.691-12.792 4.151s-9.067-0.038-13.368-1.472l-149.6-49.92 49.88 149.598c1.438 4.301 1.946 8.858 1.491 13.367s-1.863 8.87-4.131 12.796c-38.801 67.081-54.38 145.097-44.319 221.935 10.061 76.842 45.199 148.215 99.962 203.048s126.092 90.061 202.92 100.219c76.83 10.158 154.863-5.322 221.995-44.038s119.612-98.505 149.295-170.091c29.687-71.585 34.918-150.966 14.882-225.829-20.032-74.863-64.209-141.022-125.683-188.215-61.47-47.189-136.794-72.777-214.293-72.789z" />
<glyph unicode="&#xe934;" glyph-name="linkedin" d="M256 810.667c-0.011-22.632-9.012-44.332-25.024-60.327s-37.721-24.975-60.352-24.963c-22.632 0.011-44.332 9.012-60.327 25.024s-24.975 37.721-24.963 60.352c0.012 22.632 9.012 44.332 25.024 60.327s37.721 24.975 60.352 24.963c22.632-0.012 44.332-9.012 60.327-25.024s24.975-37.721 24.963-60.352zM258.56 662.187h-170.667v-534.187h170.667v534.187zM528.213 662.187h-169.813v-534.187h168.107v280.32c0 156.16 203.52 170.667 203.52 0v-280.32h168.533v338.347c0 263.253-301.227 253.44-372.053 124.16l1.707 71.68z" />
<glyph unicode="&#xe935;" glyph-name="facebook-filled" d="M597.333 448h106.667l42.667 170.667h-149.333v85.333c0 43.947 0 85.333 85.333 85.333h64v143.36c-13.909 1.835-66.432 5.973-121.899 5.973-115.84 0-198.101-70.699-198.101-200.533v-119.467h-128v-170.667h128v-362.667h170.667v362.667z" />
<glyph unicode="&#xe936;" glyph-name="quote" horiz-adv-x="1149" d="M471.938 11.902h-461.107v264.459c0 288.191 94.934 533.437 284.802 735.737h203.429c-141.27-165.004-223.207-344.701-245.81-539.089h218.687v-461.107zM1111.047 11.902h-464.499v264.459c0 284.802 94.37 530.047 283.106 735.737h208.516c-141.272-169.525-224.338-349.221-249.202-539.089h222.078v-461.107z" />
<glyph unicode="&#xe937;" glyph-name="ascend" d="M256.002 98.129c-17.067 0-34.133 12.804-34.133 34.138v686.931l-72.533-72.533c-12.8-12.8-34.133-12.8-46.933 0s-12.8 34.133 0 46.933l128 128c12.8 12.8 34.133 12.8 46.933 0l128-128c12.8-12.8 12.8-34.133 0-46.933s-34.133-12.8-46.933 0l-72.533 72.533v-691.198c0-17.067-12.8-34.133-34.133-34.133l4.267 4.262zM452.267 810.665c0 17.067 12.8 34.133 25.6 34.133h392.533c12.8 0 25.6-12.8 25.6-34.133s-12.8-34.133-25.6-34.133h-392.533c-12.8 0-25.6 12.8-25.6 34.133zM452.267 639.998c0 17.067 12.8 34.133 25.6 34.133h324.267c12.8 0 25.6-12.8 25.6-34.133s-12.8-34.133-25.6-34.133h-324.267c-12.8 0-25.6 12.8-25.6 34.133zM452.267 469.333c0 17.067 12.8 34.133 25.6 34.133h213.333c12.8 0 25.6-12.8 25.6-34.133s-12.8-34.133-25.6-34.133h-213.333c-12.8 0-25.6 12.8-25.6 34.133z" />
<glyph unicode="&#xe938;" glyph-name="descend" d="M255.996 930.135c17.067 0 34.133-12.8 34.133-34.133v-691.202l72.533 72.533c12.8 12.8 34.133 12.8 46.933 0s12.8-34.133 0-46.933l-128-128c-12.8-12.8-34.133-12.8-46.933 0l-128 128c-12.8 12.8-12.8 34.133 0 46.933s34.133 12.8 46.933 0l72.533-72.533v691.202c0 17.067 12.8 34.133 34.133 34.133h-4.267zM452.262 810.669c0 17.067 12.8 34.133 25.6 34.133h392.533c12.8 0 25.6-12.8 25.6-34.133s-12.8-34.133-25.6-34.133h-392.533c-12.8 0-25.6 12.8-25.6 34.133zM452.262 640.002c0 17.067 12.8 34.133 25.6 34.133h324.267c12.8 0 25.6-12.8 25.6-34.133s-12.8-34.133-25.6-34.133h-324.267c-12.8 0-25.6 12.8-25.6 34.133zM452.262 469.333c0 17.067 12.8 34.133 25.6 34.133h213.333c12.8 0 25.6-12.8 25.6-34.133s-12.8-34.133-25.6-34.133h-213.333c-12.8 0-25.6 12.8-25.6 34.133z" />
<glyph unicode="&#xe939;" glyph-name="linkedin-outlined" d="M225.62 716.8h-195.24c-16.78 0-30.38-13.708-30.38-30.603v-655.594c0-16.901 13.6-30.602 30.38-30.602h195.24c16.78 0 30.38 13.701 30.38 30.602v655.594c0 16.895-13.6 30.603-30.38 30.603zM195.24 61.204h-134.48v594.389h134.48v-594.389zM128.008 1024c-70.586 0-128.008-57.423-128.008-127.996 0-70.588 57.422-128.004 128.008-128.004 70.579 0 127.992 57.423 127.992 128.004 0 70.573-57.414 127.996-127.992 127.996zM128.008 828.762c-37.081 0-67.248 30.159-67.248 67.242 0 37.074 30.167 67.234 67.248 67.234 37.073 0 67.232-30.159 67.232-67.234 0-37.083-30.159-67.242-67.232-67.242zM739.067 716.8c-45.266 0-89.882-11.146-129.833-31.996-1.357 15.519-14.116 27.695-29.66 27.695h-191.395c-16.44 0-29.779-13.626-29.779-30.42v-651.661c0-16.799 13.339-30.418 29.779-30.418h191.395c16.445 0 29.778 13.619 29.778 30.418v358.415c0 46.1 36.726 83.615 81.859 83.615s81.848-37.514 81.848-83.615v-358.415c0-16.799 13.338-30.418 29.778-30.418h191.386c16.445 0 29.778 13.619 29.778 30.418v395.32c0 160.496-127.816 291.062-284.933 291.062zM964.444 60.841h-131.82v327.992c0 79.652-63.437 144.452-141.404 144.452-77.983 0-141.43-64.8-141.43-144.452v-327.992h-131.825v590.818h131.825v-22.474c0-11.701 6.569-22.363 16.901-27.425 10.322-5.062 22.574-3.62 31.514 3.692 40.325 33.042 89.042 50.509 140.861 50.509 124.273 0 225.377-103.276 225.377-230.223v-364.897z" />
<glyph unicode="&#xe93a;" glyph-name="loading" d="M509.303 970.77c17.66 0.645 32.499-13.15 33.143-30.811l5.133-140.598c0.644-17.661-13.15-32.501-30.814-33.146-17.66-0.645-32.499 13.15-33.143 30.811l-5.133 140.598c-0.644 17.661 13.15 32.501 30.814 33.146zM212.614 857.404c13.097 11.866 33.334 10.867 45.2-2.23l94.63-104.454c11.866-13.097 10.867-33.334-2.231-45.2s-33.334-10.867-45.2 2.231l-94.63 104.454c-11.866 13.097-10.867 33.334 2.231 45.2zM58.624 580.719c2.444 17.504 18.613 29.712 36.117 27.269l139.75-19.508c17.503-2.441 29.712-18.611 27.269-36.117-2.443-17.502-18.613-29.709-36.116-27.268l-139.75 19.507c-17.504 2.445-29.712 18.615-27.269 36.117zM292.951 378.402c9.366-14.989 4.809-34.731-10.179-44.096l-119.505-74.679c-14.988-9.37-34.729-4.809-44.095 10.176-9.366 14.989-4.809 34.731 10.179 44.096l119.504 74.679c14.988 9.365 34.73 4.809 44.096-10.176zM429.261 264.879c16.806-5.466 25.997-23.522 20.531-40.329l-43.537-133.841c-5.467-16.806-23.523-25.997-40.329-20.531s-25.999 23.522-20.532 40.329l43.536 133.841c5.467 16.806 23.523 25.997 40.33 20.531zM606.656 265.169c16.375 6.652 35.038-1.233 41.69-17.609l52.958-130.411c6.652-16.375-1.233-35.038-17.609-41.69-16.375-6.647-35.038 1.237-41.69 17.609l-52.958 130.415c-6.647 16.371 1.233 35.038 17.609 41.685zM742.272 379.034c8.256 15.629 27.614 21.606 43.243 13.35l124.821-65.937c15.625-8.252 21.602-27.614 13.346-43.238-8.256-15.629-27.614-21.602-43.243-13.35l-124.817 65.937c-15.629 8.252-21.606 27.614-13.35 43.238zM989.303 565.013c2.095-17.549-10.428-33.472-27.977-35.571l-140.079-16.751c-17.549-2.099-33.476 10.423-35.575 27.972s10.428 33.476 27.977 35.575l140.079 16.751c17.549 2.095 33.476-10.428 35.575-27.977z" />
<glyph unicode="&#xe93b;" glyph-name="times-circle-fill" d="M512 928c-82.278 0-162.706-24.398-231.117-70.109s-121.731-110.681-153.216-186.695c-31.486-76.013-39.724-159.657-23.673-240.352s55.671-154.82 113.85-213.001c58.179-58.18 132.303-97.801 213-113.852 80.695-16.051 164.339-7.812 240.354 23.676 76.011 31.484 140.983 84.804 186.692 153.216 45.713 68.412 70.11 148.838 70.11 231.117-0.115 110.294-43.981 216.038-121.971 294.028s-183.735 121.856-294.029 121.972zM662.639 406.639c2.974-2.974 5.333-6.502 6.942-10.385 1.609-3.887 2.436-8.051 2.436-12.254s-0.828-8.367-2.436-12.254c-1.609-3.883-3.968-7.411-6.942-10.385s-6.502-5.333-10.385-6.942c-3.887-1.609-8.047-2.436-12.254-2.436-4.203 0-8.367 0.828-12.254 2.436-3.883 1.609-7.411 3.968-10.385 6.942l-105.361 105.399-105.36-105.399c-2.973-2.974-6.503-5.333-10.387-6.942s-8.048-2.436-12.253-2.436c-4.204 0-8.368 0.828-12.253 2.436s-7.414 3.968-10.387 6.942c-2.973 2.974-5.332 6.502-6.941 10.385-1.609 3.887-2.437 8.051-2.437 12.254s0.828 8.367 2.437 12.254c1.609 3.883 3.968 7.411 6.941 10.385l105.4 105.361-105.4 105.36c-6.004 6.005-9.378 14.149-9.378 22.64s3.373 16.635 9.378 22.64c6.004 6.004 14.148 9.378 22.64 9.378s16.636-3.373 22.64-9.378l105.36-105.401 105.361 105.401c2.974 2.973 6.502 5.331 10.385 6.941 3.887 1.609 8.051 2.437 12.254 2.437 4.207 0 8.367-0.828 12.254-2.437 3.883-1.609 7.411-3.968 10.385-6.941s5.333-6.503 6.942-10.388c1.609-3.884 2.436-8.048 2.436-12.253s-0.828-8.368-2.436-12.253c-1.609-3.885-3.968-7.414-6.942-10.388l-105.399-105.36 105.399-105.361z" />
<glyph unicode="&#xe93c;" glyph-name="external-link" d="M213.334 735.998c-14.145 0-27.71-5.619-37.712-15.621s-15.621-23.567-15.621-37.712v-469.335c0-14.141 5.619-27.709 15.621-37.709 10.002-10.004 23.567-15.621 37.712-15.621h469.331c14.147 0 27.715 5.617 37.714 15.621 10.004 9.999 15.621 23.567 15.621 37.709v256c0 17.674 14.326 32 32 32s32-14.326 32-32v-256c0-31.119-12.36-60.959-34.365-82.964s-51.85-34.365-82.97-34.365h-469.331c-31.119 0-60.963 12.36-82.968 34.365s-34.366 51.85-34.366 82.964v469.335c0 31.119 12.362 60.963 34.366 82.968s51.849 34.366 82.968 34.366h256c17.673 0 32-14.327 32-32s-14.327-32-32-32h-256zM608 896.002c0 17.673 14.326 32 32 32h256c17.674 0 32-14.327 32-32v-256c0-17.673-14.326-32-32-32s-32 14.327-32 32v224h-224c-17.674 0-32 14.327-32 32zM918.636 918.629c12.498-12.497 12.498-32.758 0-45.255l-469.333-469.335c-12.497-12.498-32.758-12.498-45.255 0s-12.496 32.758 0 45.256l469.332 469.334c12.498 12.497 32.758 12.497 45.256 0z" />
<glyph unicode="&#xe93d;" glyph-name="pipe" d="M512 864c17.674 0 32-14.326 32-32v-640c0-17.674-14.326-32-32-32s-32 14.326-32 32v640c0 17.674 14.326 32 32 32z" />
<glyph unicode="&#xe93e;" glyph-name="times-circle-outline" d="M511.998 906.666c-217.968 0-394.666-176.698-394.666-394.666s176.7-394.666 394.666-394.666c217.968 0 394.668 176.698 394.668 394.666s-176.7 394.666-394.668 394.666zM53.332 512c0 253.314 205.352 458.666 458.666 458.666s458.668-205.352 458.668-458.666c0-253.316-205.354-458.666-458.668-458.666s-458.666 205.352-458.666 458.666zM350.926 673.072c12.79 12.79 33.53 12.79 46.322 0l114.752-114.752 114.752 114.752c12.792 12.79 33.53 12.79 46.322 0s12.792-33.532 0-46.322l-114.752-114.752 114.752-114.752c12.792-12.792 12.792-33.53 0-46.322s-33.53-12.792-46.322 0l-114.752 114.752-114.752-114.752c-12.792-12.792-33.532-12.792-46.322 0s-12.79 33.53 0 46.322l114.752 114.752-114.752 114.752c-12.79 12.79-12.79 33.53 0 46.322z" />
<glyph unicode="&#xe93f;" glyph-name="youtube" d="M426.667 384l221.44 128-221.44 128v-256zM919.893 718.080c5.547-20.053 9.387-46.933 11.947-81.067 2.987-34.133 4.267-63.573 4.267-89.173l2.56-35.84c0-93.44-6.827-162.133-18.773-206.080-10.667-38.4-35.413-63.147-73.813-73.813-20.053-5.547-56.747-9.387-113.067-11.947-55.467-2.987-106.24-4.267-153.173-4.267l-67.84-2.56c-178.773 0-290.133 6.827-334.080 18.773-38.4 10.667-63.147 35.413-73.813 73.813-5.547 20.053-9.387 46.933-11.947 81.067-2.987 34.133-4.267 63.573-4.267 89.173l-2.56 35.84c0 93.44 6.827 162.133 18.773 206.080 10.667 38.4 35.413 63.147 73.813 73.813 20.053 5.547 56.747 9.387 113.067 11.947 55.467 2.987 106.24 4.267 153.173 4.267l67.84 2.56c178.773 0 290.133-6.827 334.080-18.773 38.4-10.667 63.147-35.413 73.813-73.813z" />
</font>
</defs>
</svg>
